<?xml version="1.0" standalone="no"?>
<!DOCTYPE svg PUBLIC "-//W3C//DTD SVG 1.1//EN" "http://www.w3.org/Graphics/SVG/1.1/DTD/svg11.dtd">
<svg xmlns="http://www.w3.org/2000/svg">
<metadata>Generated by Fontastic.me</metadata>
<defs>
<font id="asg-icon-font" horiz-adv-x="512">
<font-face font-family="asg-icon-font" units-per-em="512" ascent="480" descent="-32"/>
<missing-glyph horiz-adv-x="512" />

<glyph glyph-name="chevron-down" unicode="&#97;" d="M256 160l-160 160 22 22 138-137 138 137 22-22z"/>
<glyph glyph-name="chevron-left" unicode="&#98;" d="M160 256l160 160 22-22-137-138 137-138-22-22z"/>
<glyph glyph-name="chevron-right" unicode="&#99;" d="M352 256l-160-160-22 22 137 138-137 138 22 22z"/>
<glyph glyph-name="chevron-sort-down" unicode="&#100;" d="M256 64l-112 112 22 22 90-89 90 89 22-22z"/>
<glyph glyph-name="chevron-sort-up" unicode="&#101;" d="M256 448l112-112-22-22-90 89-90-89-22 22z"/>
<glyph glyph-name="chevron-up" unicode="&#102;" d="M256 352l160-160-22-22-138 137-138-137-22 22z"/>
<glyph glyph-name="view" unicode="&#103;" d="M495 261c-38 100-132 167-239 171-107-4-201-71-239-171-1-3-1-7 0-10 38-100 132-167 239-171 107 4 201 71 239 171 1 3 1 7 0 10z m-239-149c-85 0-174 63-207 144 33 81 122 144 207 144 85 0 174-63 207-144-33-81-122-144-207-144z m0 240c-53 0-96-43-96-96 0-53 43-96 96-96 53 0 96 43 96 96 0 53-43 96-96 96z m0-160c-35 0-64 29-64 64 0 35 29 64 64 64 35 0 64-29 64-64 0-35-29-64-64-64z"/>
<glyph glyph-name="view-off" unicode="&#104;" d="M84 152l23 23c-25 22-45 50-58 81 33 81 122 144 207 144 22 0 43-4 64-12l25 25c-28 12-58 19-89 19-107-4-201-71-239-171-1-3-1-7 0-10 14-38 37-72 67-99z m108 108c2 32 28 57 59 60l29 29c-33 8-68-1-92-25-24-24-34-60-25-93z m303 1c-18 48-50 90-92 119l77 77-23 23-425-425 23-23 81 82c37-22 78-33 120-34 107 4 201 71 239 171 1 3 1 7 0 10z m-175-5c0-23-12-44-32-55-20-11-44-11-64 0l87 87c6-10 9-21 9-32z m-64-144c-34 1-66 9-96 25l41 41c38-27 89-22 122 11 33 33 38 84 11 123l46 45c37-25 66-60 83-101-33-81-122-144-207-144z"/>
<glyph glyph-name="error-filled" unicode="&#105;" d="M256 480c-125 0-224-99-224-224 0-125 99-224 224-224 125 0 224 99 224 224 0 125-99 224-224 224z m86-336l-198 198 26 26 198-198z"/>
<glyph glyph-name="warning-filled" unicode="&#106;" d="M256 480c-123 0-224-101-224-224 0-123 101-224 224-224 123 0 224 101 224 224 0 123-101 224-224 224z m-18-96l36 0 0-176-36 0z m18-272c-13 0-24 11-24 24 0 13 11 24 24 24 13 0 24-11 24-24 0-13-11-24-24-24z"/>
<glyph glyph-name="warning-alt-filled" unicode="&#107;" d="M478 72l-208 400c-3 5-8 8-14 8-6 0-11-3-14-8l-208-400c-3-5-3-11 0-16 3-5 8-8 14-8l416 0c6 0 11 3 14 8 3 5 3 11 0 16z m-240 280l36 0 0-160-36 0z m18-256c-13 0-24 11-24 24 0 13 11 24 24 24 13 0 24-11 24-24 0-13-11-24-24-24z"/>
<glyph glyph-name="information-filled" unicode="&#108;" d="M256 480c-124 0-224-100-224-224 0-124 100-224 224-224 124 0 224 100 224 224 0 124-100 224-224 224z m0-80c13 0 24-11 24-24 0-13-11-24-24-24-13 0-24 11-24 24 0 13 11 24 24 24z m64-274l-128 0 0 36 46 0 0 108-30 0 0 36 66 0 0-144 46 0z"/>
<glyph glyph-name="open-panel-filled-left" unicode="&#109;" d="M448 448l-384 0c-18 0-32-14-32-32l0-320c0-18 14-32 32-32l384 0c18 0 32 14 32 32l0 320c0 18-14 32-32 32z m0-352l-256 0 0 320 256 0z"/>
<glyph glyph-name="settings" unicode="&#110;" d="M432 244c0 4 0 8 0 12 0 4 0 8 0 12l31 27c11 11 14 28 6 41l-38 64c-6 10-16 16-28 16-3 0-7-1-10-2l-39-13c-6 5-13 9-21 12l-8 41c-3 15-16 26-32 25l-75 0c-15 1-29-10-32-25l-8-41c-7-3-14-7-21-12l-38 14c-3 1-7 1-10 1-12 0-22-6-28-16l-38-64c-8-13-5-30 7-40l30-28c0-4 0-8 0-12 0-4 0-8 0-12l-30-27c-12-10-15-28-7-41l38-64c6-10 16-16 28-16 3 0 7 1 10 2l39 13c6-5 13-9 21-12l8-41c3-15 16-26 32-25l75 0c16-1 29 10 32 25l9 41c7 3 14 7 21 12l38-13c4-1 7-2 11-2 11 0 22 6 27 16l37 64c8 13 5 30-7 40z m-29-116l-55 19c-12-11-27-20-43-26l-11-57-76 0-11 57c-16 6-30 14-43 25l-55-18-38 64 43 38c-3 17-3 34 0 50l-43 40 38 64 55-19c12 11 27 20 43 26l11 57 76 0 11-57c16-6 30-14 43-25l55 18 38-64-43-38c3-17 3-34 0-50l43-40z m-147 32c-53 0-96 43-96 96 0 53 43 96 96 96 53 0 96-43 96-96 0-26-10-50-28-68-18-18-42-28-68-28z m0 160c-17 0-34-6-46-18-12-12-18-29-18-46 0-17 6-34 18-46 12-12 29-18 46-18 17 0 34 6 46 18 12 12 18 29 18 46 0 17-6 34-18 46-12 12-29 18-46 18z"/>
<glyph glyph-name="login" unicode="&#111;" d="M416 32l-192 0c-18 0-32 14-32 32l0 48 32 0 0-48 192 0 0 384-192 0 0-48-32 0 0 48c0 18 14 32 32 32l192 0c18 0 32-14 32-32l0-384c0-18-14-32-32-32z m-183 151l58 57-227 0 0 32 227 0-58 57 23 23 96-96-96-96z"/>
<glyph glyph-name="user" unicode="&#112;" d="M256 448c44 0 80-36 80-80 0-44-36-80-80-80-44 0-80 36-80 80 0 44 36 80 80 80m0 32c-62 0-112-50-112-112 0-62 50-112 112-112 62 0 112 50 112 112 0 62-50 112-112 112z m160-448l-32 0 0 80c0 44-36 80-80 80l-96 0c-44 0-80-36-80-80l0-80-32 0 0 80c0 62 50 112 112 112l96 0c62 0 112-50 112-112z"/>
<glyph glyph-name="power" unicode="&#113;" d="M360 420l-16-28c69-39 103-121 82-197-21-77-90-131-170-131-80 0-149 54-170 131-21 76 13 158 82 197l-16 28c-82-47-121-143-97-234 24-91 107-154 201-154 94 0 177 63 201 154 24 91-15 187-97 234z m-120 60l32 0 0-224-32 0z"/>
<glyph glyph-name="number-3" unicode="&#114;" d="M288 368l-96 0 0-32 96 0 0-64-64 0 0-32 64 0 0-64-96 0 0-32 96 0c18 0 32 14 32 32l0 160c0 18-14 32-32 32z"/>
<glyph glyph-name="number-2" unicode="&#115;" d="M320 144l-128 0 0 96c0 18 14 32 32 32l64 0 0 64-96 0 0 32 96 0c18 0 32-14 32-32l0-64c0-18-14-32-32-32l-64 0 0-64 96 0z"/>
<glyph glyph-name="number-1" unicode="&#116;" d="M256 352l0-192 0 192m16 16l-80 0 0-32 48 0 0-160-48 0 0-32 128 0 0 32-48 0z"/>
<glyph glyph-name="data-base" unicode="&#117;" d="M384 464l-256 0c-18 0-32-14-32-32l0-352c0-18 14-32 32-32l256 0c18 0 32 14 32 32l0 352c0 18-14 32-32 32z m0-32l0-96-256 0 0 96z m-256-224l0 96 256 0 0-96z m0-128l0 96 256 0 0-96z m64 304c0-9-7-16-16-16-9 0-16 7-16 16 0 9 7 16 16 16 9 0 16-7 16-16z m0-128c0-9-7-16-16-16-9 0-16 7-16 16 0 9 7 16 16 16 9 0 16-7 16-16z m0-128c0-9-7-16-16-16-9 0-16 7-16 16 0 9 7 16 16 16 9 0 16-7 16-16z"/>
<glyph glyph-name="user-multiple" unicode="&#118;" d="M480 32l-32 0 0 80c0 44-36 80-80 80l0 32c62 0 112-50 112-112z m-128 0l-32 0 0 80c0 44-36 80-80 80l-96 0c-44 0-80-36-80-80l0-80-32 0 0 80c0 62 50 112 112 112l96 0c62 0 112-50 112-112z m-32 448l0-32c44 0 80-36 80-80 0-44-36-80-80-80l0-32c62 0 112 50 112 112 0 62-50 112-112 112z m-128-32c44 0 80-36 80-80 0-44-36-80-80-80-44 0-80 36-80 80 0 44 36 80 80 80m0 32c-62 0-112-50-112-112 0-62 50-112 112-112 62 0 112 50 112 112 0 62-50 112-112 112z"/>
<glyph glyph-name="settings-adjust" unicode="&#119;" d="M480 384l-66 0c-8 37-40 64-78 64-38 0-70-27-78-64l-226 0 0-32 226 0c8-37 40-64 78-64 38 0 70 27 78 64l66 0z m-144-64c-27 0-48 21-48 48 0 27 21 48 48 48 27 0 48-21 48-48 0-27-21-48-48-48z m-304-192l66 0c8-37 40-64 78-64 38 0 70 27 78 64l226 0 0 32-226 0c-8 37-40 64-78 64-38 0-70-27-78-64l-66 0z m144 64c27 0 48-21 48-48 0-27-21-48-48-48-27 0-48 21-48 48 0 27 21 48 48 48z"/>
<glyph glyph-name="recording" unicode="&#120;" d="M256 448c106 0 192-86 192-192 0-106-86-192-192-192-106 0-192 86-192 192 0 106 86 192 192 192m0 32c-124 0-224-100-224-224 0-124 100-224 224-224 124 0 224 100 224 224 0 124-100 224-224 224z m0-160c35 0 64-29 64-64 0-35-29-64-64-64-35 0-64 29-64 64 0 35 29 64 64 64m0 32c-53 0-96-43-96-96 0-53 43-96 96-96 53 0 96 43 96 96 0 53-43 96-96 96z"/>
<glyph glyph-name="improve-relevance" unicode="&#121;" d="M352 87l-41 41-23-23 64-64 128 128-23 23z m-64 169c0-18-14-32-32-32-18 0-32 14-32 32 0 18 14 32 32 32 18 0 32-14 32-32z m-32-96c-53 0-96 43-96 96 0 53 43 96 96 96 53 0 96-43 96-96 0-53-43-96-96-96z m0 160c-35 0-64-29-64-64 0-35 29-64 64-64 35 0 64 29 64 64 0 35-29 64-64 64z m192-64c0 106-86 192-192 192-106 0-192-86-192-192 0-106 86-192 192-192l0 32c-88 0-160 72-160 160 0 88 72 160 160 160 88 0 160-72 160-160z"/>
<glyph glyph-name="number-2-1" unicode="&#122;" d="M0 512l32 0 0-32-32 0z m320-368l-128 0 0 96c0 18 14 32 32 32l64 0 0 64-96 0 0 32 96 0c18 0 32-14 32-32l0-64c0-18-14-32-32-32l-64 0 0-64 96 0z"/>
<glyph glyph-name="number-3-1" unicode="&#65;" d="M0 512l32 0 0-32-32 0z m288-144l-96 0 0-32 96 0 0-64-64 0 0-32 64 0 0-64-96 0 0-32 96 0c18 0 32 14 32 32l0 160c0 18-14 32-32 32z"/>
<glyph glyph-name="number-3-2" unicode="&#66;" d="M0 512l32 0 0-32-32 0z m288-144l-96 0 0-32 96 0 0-64-64 0 0-32 64 0 0-64-96 0 0-32 96 0c18 0 32 14 32 32l0 160c0 18-14 32-32 32z"/>
<glyph glyph-name="user-add" unicode="&#67;" d="M512 288l-64 0 0 64-32 0 0-64-64 0 0-32 64 0 0-64 32 0 0 64 64 0z m-320 160c44 0 80-36 80-80 0-44-36-80-80-80-44 0-80 36-80 80 0 44 36 80 80 80m0 32c-62 0-112-50-112-112 0-62 50-112 112-112 62 0 112 50 112 112 0 62-50 112-112 112z m160-448l-32 0 0 80c0 44-36 80-80 80l-96 0c-44 0-80-36-80-80l0-80-32 0 0 80c0 62 50 112 112 112l96 0c62 0 112-50 112-112z"/>
<glyph glyph-name="trash-can" unicode="&#69;" d="M192 320l32 0 0-192-32 0z m96 0l32 0 0-192-32 0z m-224 96l0-32 32 0 0-320c0-18 14-32 32-32l256 0c18 0 32 14 32 32l0 320 32 0 0 32z m64-352l0 320 256 0 0-320z m64 416l128 0 0-32-128 0z"/>
<glyph glyph-name="arrow-down" unicode="&#70;" d="M393 247l-121-122 0 355-32 0 0-355-121 122-23-23 160-160 160 160z"/>
<glyph glyph-name="arrow-up" unicode="&#71;" d="M256 448l-160-160 23-23 121 122 0-355 32 0 0 355 121-122 23 23z"/>
<glyph glyph-name="close" unicode="&#72;" d="M384 362l-22 22-106-106-106 106-22-22 106-106-106-106 22-22 106 106 106-106 22 22-106 106z"/>
<glyph glyph-name="edit" unicode="&#73;" d="M32 96l448 0 0-32-448 0z m374 272c13 13 13 32 0 45l-57 57c-13 13-32 13-45 0l-240-240 0-102 102 0z m-80 80l58-58-48-48-58 58z m-230-288l0 58 160 160 58-58-160-160z"/>
<glyph glyph-name="checkmark-filled" unicode="&#74;" d="M256 480c-123 0-224-101-224-224 0-123 101-224 224-224 123 0 224 101 224 224 0 123-101 224-224 224z m-32-312l-80 80 26 24 54-54 118 118 26-26z"/>
<glyph glyph-name="menu" unicode="&#68;" d="M64 128l384 0 0-32-384 0z m0 192l384 0 0-32-384 0z m0-96l384 0 0-32-384 0z m0 192l384 0 0-32-384 0z"/>
<glyph glyph-name="user-activity" unicode="&#75;" d="M400 144l0 0c-7 0-13 5-15 12l-51 177-31-83c-2-6-8-10-15-10l-64 0 0 32 53 0 44 118c2 6 9 10 16 10 7 0 12-5 14-12l50-174 32 95c2 7 8 11 15 11l64 0 0-32-52 0-45-133c-2-7-8-11-15-11z m-160-112l-32 0 0 112c0 26-22 48-48 48l-64 0c-26 0-48-22-48-48l0-112-32 0 0 112c0 44 36 80 80 80l64 0c44 0 80-36 80-80z m-112 352c27 0 48-21 48-48 0-27-21-48-48-48-27 0-48 21-48 48 0 27 21 48 48 48m0 32c-44 0-80-36-80-80 0-44 36-80 80-80 44 0 80 36 80 80 0 44-36 80-80 80z"/>
<glyph glyph-name="events" unicode="&#76;" d="M416 288l-32 0 0-32 32 0c26 0 48-22 48-48l0-64 32 0 0 64c0 44-36 80-80 80z m-32 160c27 0 48-21 48-48 0-27-21-48-48-48-27 0-48 21-48 48 0 27 21 48 48 48m0 32c-44 0-80-36-80-80 0-44 36-80 80-80 44 0 80 36 80 80 0 44-36 80-80 80z m-16-448l-32 0 0 32c0 26-22 48-48 48l-64 0c-26 0-48-22-48-48l0-32-32 0 0 32c0 44 36 80 80 80l64 0c44 0 80-36 80-80z m-112 272c27 0 48-21 48-48 0-27-21-48-48-48-27 0-48 21-48 48 0 27 21 48 48 48m0 32c-44 0-80-36-80-80 0-44 36-80 80-80 44 0 80 36 80 80 0 44-36 80-80 80z m-128-48l-32 0c-44 0-80-36-80-80l0-64 32 0 0 64c0 26 22 48 48 48l32 0z m0 160c27 0 48-21 48-48 0-27-21-48-48-48-27 0-48 21-48 48 0 27 21 48 48 48m0 32c-44 0-80-36-80-80 0-44 36-80 80-80 44 0 80 36 80 80 0 44-36 80-80 80z"/>
<glyph glyph-name="partnership" unicode="&#77;" d="M128 368c-35 0-64 29-64 64 0 35 29 64 64 64 35 0 64-29 64-64 0-35-29-64-64-64z m0 96c-18 0-32-14-32-32 0-18 14-32 32-32 18 0 32 14 32 32 0 18-14 32-32 32z m256-96c-35 0-64 29-64 64 0 35 29 64 64 64 35 0 64-29 64-64 0-35-29-64-64-64z m0 96c-18 0-32-14-32-32 0-18 14-32 32-32 18 0 32 14 32 32 0 18-14 32-32 32z m32-432l-64 0c-18 0-32 14-32 32l0 112 32 0 0-112 64 0 0 144 32 0 0 96c0 9-7 16-16 16l-103 0-73-128-73 128-103 0c-9 0-16-7-16-16l0-96 32 0 0-144 64 0 0 112 32 0 0-112c0-18-14-32-32-32l-64 0c-18 0-32 14-32 32l0 112c-18 0-32 14-32 32l0 96c0 27 21 48 48 48l121 0 55-96 55 96 121 0c27 0 48-21 48-48l0-96c0-18-14-32-32-32l0-112c0-18-14-32-32-32z"/>
<glyph glyph-name="analytics" unicode="&#78;" d="M64 480l-32 0 0-416c0-18 14-32 32-32l416 0 0 32-416 0z m416-112l-112 0 0-32 57 0-121-121-69 68c-3 3-7 5-11 5-4 0-8-2-11-5l-117-116 23-23 105 105 69-68c3-3 7-5 11-5 4 0 8 2 11 5l133 132 0-57 32 0z"/>
<glyph glyph-name="tree-view-alt" unicode="&#79;" d="M368 368l96 0c18 0 32 14 32 32l0 64c0 18-14 32-32 32l-96 0c-18 0-32-14-32-32l0-16-160 0 0 16c0 18-14 32-32 32l-96 0c-18 0-32-14-32-32l0-64c0-18 14-32 32-32l96 0c18 0 32 14 32 32l0 16 64 0 0-320c0-18 14-32 32-32l64 0 0-16c0-18 14-32 32-32l96 0c18 0 32 14 32 32l0 64c0 18-14 32-32 32l-96 0c-18 0-32-14-32-32l0-16-64 0 0 144 64 0 0-16c0-18 14-32 32-32l96 0c18 0 32 14 32 32l0 64c0 18-14 32-32 32l-96 0c-18 0-32-14-32-32l0-16-64 0 0 144 64 0 0-16c0-18 14-32 32-32z m0 96l96 0 0-64-96 0z m-224-64l-96 0 0 64 96 0z m224-288l96 0 0-64-96 0z m0 176l96 0 0-64-96 0z"/>
<glyph glyph-name="upload" unicode="&#80;" d="M96 240l23-23 121 122 0-307 32 0 0 307 121-122 23 23-160 160z m0 144l0 64 320 0 0-64 32 0 0 64c0 18-14 32-32 32l-320 0c-18 0-32-14-32-32l0-64z"/>
<glyph glyph-name="download" unicode="&#81;" d="M416 272l-23 23-121-122 0 307-32 0 0-307-121 122-23-23 160-160z m0-144l0-64-320 0 0 64-32 0 0-64c0-18 14-32 32-32l320 0c18 0 32 14 32 32l0 64z"/>
<glyph glyph-name="calculator" unicode="&#82;" d="M416 448l0-384-320 0 0 384 320 0m0 32l-320 0c-18 0-32-14-32-32l0-384c0-18 14-32 32-32l320 0c18 0 32 14 32 32l0 384c0 18-14 32-32 32z m-272-336l32 0 0-32-32 0z m192 0l32 0 0-32-32 0z m-192 80l32 0 0-32-32 0z m192 0l32 0 0-32-32 0z m-192 80l32 0 0-32-32 0z m96-160l32 0 0-32-32 0z m0 80l32 0 0-32-32 0z m0 80l32 0 0-32-32 0z m96 0l32 0 0-32-32 0z m-192 96l224 0 0-48-224 0z"/>
<glyph glyph-name="user-avatar" unicode="&#83;" d="M256 480c-124 0-224-100-224-224 0-124 100-224 224-224 124 0 224 100 224 224 0 124-100 224-224 224z m-96-390l0 32c-1 28 20 52 48 54l96 0c28-2 50-26 48-54l0-32c-59-35-133-35-192 0z m224 23l0 10c1 45-35 83-80 85l-96 0c-45-2-81-40-80-85l0-9c-59 53-80 137-51 211 28 75 99 124 179 124 80 0 151-49 179-124 29-74 8-158-51-211z m-128 287c-44 0-80-36-80-80 0-44 36-80 80-80 44 0 80 36 80 80 0 44-36 80-80 80z m0-128c-27 0-48 21-48 48 0 27 21 48 48 48 27 0 48-21 48-48 0-27-21-48-48-48z"/>
<glyph glyph-name="search" unicode="&#84;" d="M480 55l-121 121c60 72 53 179-17 242-69 64-176 61-243-5-66-67-69-174-5-243 63-70 170-77 242-17l121-121z m-400 233c0 80 64 144 144 144 80 0 144-64 144-144 0-80-64-144-144-144-80 0-144 64-144 144z"/>
<glyph glyph-name="phone" unicode="&#85;" d="M416 48l-3 0c-314 18-359 283-365 364-1 13 3 26 11 35 9 10 20 16 33 17l88 0c13 0 25-8 30-20l24-60c5-12 2-25-7-35l-34-34c11-62 60-110 122-122l34 35c9 9 23 11 35 6l60-24c12-5 20-17 20-30l0-84c0-27-21-48-48-48z m-320 384c-9 0-16-7-16-16l0-1c7-95 55-319 335-335 4 0 8 1 12 4 3 3 5 7 5 11l0 85-60 25-46-46-8 1c-139 17-158 157-158 158l-1 8 45 46-24 60z"/>
<glyph glyph-name="building" unicode="&#86;" d="M448 480l-192 0c-18 0-32-14-32-32l0-160-160 0c-18 0-32-14-32-32l0-224 448 0 0 416c0 18-14 32-32 32z m-304-416l0 112 64 0 0-112z m304 0l-208 0 0 128c0 9-7 16-16 16l-96 0c-9 0-16-7-16-16l0-128-48 0 0 192 192 0 0 192 192 0z m-160 320l32 0 0-32-32 0z m96 0l32 0 0-32-32 0z m-96-96l32 0 0-32-32 0z m96 0l32 0 0-32-32 0z m-96-96l32 0 0-32-32 0z m96 0l32 0 0-32-32 0z"/>
<glyph glyph-name="email" unicode="&#87;" d="M448 416l-384 0c-18 0-32-14-32-32l0-256c0-18 14-32 32-32l384 0c18 0 32 14 32 32l0 256c0 18-14 32-32 32z m-35-32l-157-108-157 108z m-349-256l0 241 183-126c5-4 13-4 18 0l183 126 0-241z"/>
<glyph glyph-name="save" unicode="&#88;" d="M443 363l-80 80c-3 3-7 5-11 5l-256 0c-18 0-32-14-32-32l0-320c0-18 14-32 32-32l320 0c18 0 32 14 32 32l0 256c0 4-2 8-5 11z m-251 53l128 0 0-64-128 0z m128-320l-128 0 0 128 128 0z m32 0l0 128c0 18-14 32-32 32l-128 0c-18 0-32-14-32-32l0-128-64 0 0 320 64 0 0-64c0-18 14-32 32-32l128 0c18 0 32 14 32 32l0 57 64-64 0-249z"/>
<glyph glyph-name="add" unicode="&#89;" d="M272 272l0 112-32 0 0-112-112 0 0-32 112 0 0-112 32 0 0 112 112 0 0 32z"/>
<glyph glyph-name="subtract" unicode="&#90;" d="M128 272l256 0 0-32-256 0z"/>
<glyph glyph-name="dashboard" unicode="&#48;" d="M384 176l32 0 0-80-32 0z m-64 80l32 0 0-160-32 0z m-144-160c-44 0-80 36-80 80l32 0c0-27 21-48 48-48 27 0 48 21 48 48 0 27-21 48-48 48l0 32c44 0 80-36 80-80 0-44-36-80-80-80z m272 384l-384 0c-18 0-32-14-32-32l0-384c0-18 14-32 32-32l384 0c18 0 32 14 32 32l0 384c0 18-14 32-32 32z m0-144l-224 0 0 112 224 0z m-256 112l0-112-128 0 0 112z m-128-384l0 240 384 0 0-240z"/>
<glyph glyph-name="user-profile" unicode="&#49;" d="M192 448c44 0 80-36 80-80 0-44-36-80-80-80-44 0-80 36-80 80 0 44 36 80 80 80m0 32c-62 0-112-50-112-112 0-62 50-112 112-112 62 0 112 50 112 112 0 62-50 112-112 112z m160-448l-32 0 0 80c0 44-36 80-80 80l-96 0c-44 0-80-36-80-80l0-80-32 0 0 80c0 62 50 112 112 112l96 0c62 0 112-50 112-112z m0 416l160 0 0-32-160 0z m0-80l160 0 0-32-160 0z m0-80l112 0 0-32-112 0z"/>
<glyph glyph-name="star" unicode="&#50;" d="M256 408l44-90 8-16 16-2 98-14-70-69-12-12 3-16 17-98-88 46-16 7-15-8-88-45 16 98 3 16-12 12-71 70 99 14 16 2 7 16 45 89m0 72l-73-148-163-23 118-115-28-162 146 76 146-76-28 162 118 115-163 23z"/>
<glyph glyph-name="star-filled" unicode="&#51;" d="M256 480l-73-148-163-23 118-115-28-162 146 76 146-76-28 162 118 115-163 23z"/>
<glyph glyph-name="checkmark-outline" unicode="&#53;" d="M256 480c-124 0-224-100-224-224 0-124 100-224 224-224 124 0 224 100 224 224 0 124-100 224-224 224z m0-416c-106 0-192 86-192 192 0 106 86 192 192 192 106 0 192-86 192-192 0-106-86-192-192-192z m-32 104l-80 79 25 25 55-54 119 118 25-25z"/>
<glyph glyph-name="radio-button" unicode="&#54;" d="M256 480c-124 0-224-100-224-224 0-124 100-224 224-224 124 0 224 100 224 224 0 124-100 224-224 224z m0-416c-106 0-192 86-192 192 0 106 86 192 192 192 106 0 192-86 192-192 0-106-86-192-192-192z"/>
<glyph glyph-name="radio-button-checked" unicode="&#55;" d="M256 480c-124 0-224-100-224-224 0-124 100-224 224-224 124 0 224 100 224 224 0 124-100 224-224 224z m0-416c-106 0-192 86-192 192 0 106 86 192 192 192 106 0 192-86 192-192 0-106-86-192-192-192z m0 288c-53 0-96-43-96-96 0-53 43-96 96-96 53 0 96 43 96 96 0 53-43 96-96 96z"/>
<glyph glyph-name="list" unicode="&#52;" d="M160 416l288 0 0-32-288 0z m0-288l288 0 0-32-288 0z m0 144l288 0 0-32-288 0z m-96 0l32 0 0-32-32 0z m0 144l32 0 0-32-32 0z m0-288l32 0 0-32-32 0z"/>
<glyph glyph-name="add-alt" unicode="&#56;" d="M256 448c106 0 192-86 192-192 0-106-86-192-192-192-106 0-192 86-192 192 0 106 86 192 192 192m0 32c-123 0-224-101-224-224 0-123 101-224 224-224 123 0 224 101 224 224 0 123-101 224-224 224z m128-208l-112 0 0 112-32 0 0-112-112 0 0-32 112 0 0-112 32 0 0 112 112 0z"/>
<glyph glyph-name="subtract-alt" unicode="&#57;" d="M256 448c106 0 192-86 192-192 0-106-86-192-192-192-106 0-192 86-192 192 0 106 86 192 192 192m0 32c-123 0-224-101-224-224 0-123 101-224 224-224 123 0 224 101 224 224 0 123-101 224-224 224z m-128-208l256 0 0-32-256 0z"/>
<glyph glyph-name="lightning" unicode="&#33;" d="M186 33c-7 3-11 10-10 17l29 190-77 0c-5 0-10 2-13 6-3 4-4 9-3 14l48 208c2 7 8 12 16 12l160 0c5 0 9-2 12-6 4-4 5-9 4-14l-28-124 76 0c6 0 12-3 14-9 3-5 2-11-1-16l-208-272c-3-4-8-7-13-7-2 0-4 0-6 1z m98 271l32 144-127 0-41-176 95 0-26-164 151 196z"/>
<glyph glyph-name="shopping-cart" unicode="&#34;" d="M192 64c0-18-14-32-32-32-18 0-32 14-32 32 0 18 14 32 32 32 18 0 32-14 32-32z m224 0c0-18-14-32-32-32-18 0-32 14-32 32 0 18 14 32 32 32 18 0 32-14 32-32z m32 336l-355 0-13 67c-2 8-8 13-16 13l-64 0 0-32 51 0 61-307c2-8 8-13 16-13l288 0 0 32-275 0-13 64 288 0c8 0 14 5 16 12l32 144c1 5 0 10-3 14-3 4-8 6-13 6z m-45-144l-281 0-22 112 328 0z"/>
<glyph glyph-name="document-download" unicode="&#35;" d="M480 112l-23 23-41-42 0 131-32 0 0-131-41 42-23-23 80-80z m-192-48l-160 0 0 384 128 0 0-96c0-18 14-32 32-32l96 0 0-48 32 0 0 80c0 4-2 8-5 11l-112 112c-3 3-7 5-11 5l-160 0c-18 0-32-14-32-32l0-384c0-18 14-32 32-32l160 0z m0 378l90-90-90 0z"/>
<glyph glyph-name="document" unicode="&#36;" d="M411 363l-112 112c-3 3-6 5-11 5l-160 0c-18 0-32-14-32-32l0-384c0-18 14-32 32-32l256 0c18 0 32 14 32 32l0 288c0 5-2 8-5 11z m-123 79l90-90-90 0z m96-378l-256 0 0 384 128 0 0-96c0-18 14-32 32-32l96 0z m-224 96l192 0 0-32-192 0z m0 96l192 0 0-32-192 0z"/>
<glyph glyph-name="camera" unicode="&#37;" d="M464 96l-416 0c-9 0-16 7-16 16l0 272c0 9 7 16 16 16l103 0 28 41c3 4 8 7 13 7l128 0c5 0 10-3 13-7l28-41 103 0c9 0 16-7 16-16l0-272c0-9-7-16-16-16z m-400 32l384 0 0 240-96 0c-5 0-10 3-13 7l-28 41-110 0-28-41c-3-4-8-7-13-7l-96 0z m192 32c-53 0-96 43-96 96 0 53 43 96 96 96 53 0 96-43 96-96 0-53-43-96-96-96z m0 160c-35 0-64-29-64-64 0-35 29-64 64-64 35 0 64 29 64 64 0 35-29 64-64 64z"/>
<glyph glyph-name="locked" unicode="&#38;" d="M384 288l-32 0 0 96c0 53-43 96-96 96-53 0-96-43-96-96l0-96-32 0c-18 0-32-14-32-32l0-192c0-18 14-32 32-32l256 0c18 0 32 14 32 32l0 192c0 18-14 32-32 32z m-192 96c0 35 29 64 64 64 35 0 64-29 64-64l0-96-128 0z m192-320l-256 0 0 192 256 0z"/>
<glyph glyph-name="unlocked" unicode="&#39;" d="M384 288l-192 0 0 96c0 35 29 64 64 64 35 0 64-29 64-64l32 0c0 53-43 96-96 96-53 0-96-43-96-96l0-96-32 0c-18 0-32-14-32-32l0-192c0-18 14-32 32-32l256 0c18 0 32 14 32 32l0 192c0 18-14 32-32 32z m0-224l-256 0 0 192 256 0z"/>
<glyph glyph-name="renew" unicode="&#40;" d="M192 352l-84 0c43 65 123 95 198 73 75-22 126-91 126-169l32 0c0 88-55 166-137 196-83 30-175 5-231-63l0 59-32 0 0-128 128 0z m128-192l84 0c-43-65-123-95-198-73-75 22-126 91-126 169l-32 0c0-88 55-166 137-196 83-30 175-5 231 63l0-59 32 0 0 128-128 0z"/>
<glyph glyph-name="face-satisfied" unicode="&#41;" d="M256 480c-124 0-224-100-224-224 0-124 100-224 224-224 124 0 224 100 224 224 0 124-100 224-224 224z m0-416c-106 0-192 86-192 192 0 106 86 192 192 192 106 0 192-86 192-192 0-106-86-192-192-192z m-72 272c-22 0-40-18-40-40 0-22 18-40 40-40 22 0 40 18 40 40 0 11-4 21-12 28-7 8-17 12-28 12z m144 0c-22 0-40-18-40-40 0-22 18-40 40-40 22 0 40 18 40 40 0 11-4 21-12 28-7 8-17 12-28 12z m-72-208c45 0 87 24 110 62l-28 16c-17-29-48-46-82-46-34 0-65 17-82 46l-28-16c23-38 65-62 110-62z"/>
<glyph glyph-name="money" unicode="&#42;" d="M32 160l448 0 0-32-448 0z m0-64l448 0 0-32-448 0z m352 256c-18 0-32-14-32-32 0-18 14-32 32-32 18 0 32 14 32 32 0 18-14 32-32 32z m-128-96c-35 0-64 29-64 64 0 35 29 64 64 64 35 0 64-29 64-64 0-35-29-64-64-64z m0 96c-18 0-32-14-32-32 0-18 14-32 32-32 18 0 32 14 32 32 0 18-14 32-32 32z m-128 0c-18 0-32-14-32-32 0-18 14-32 32-32 18 0 32 14 32 32 0 18-14 32-32 32z m320-160l-384 0c-18 0-32 14-32 32l0 192c0 18 14 32 32 32l384 0c18 0 32-14 32-32l0-192c0-18-14-32-32-32z m0 224l-384 0 0-192 384 0z"/>
<glyph glyph-name="face-mask" unicode="&#43;" d="M184 336c-22 0-40-18-40-40 0-22 18-40 40-40 22 0 40 18 40 40 0 22-18 40-40 40z m144 0c-22 0-40-18-40-40 0-22 18-40 40-40 22 0 40 18 40 40 0 22-18 40-40 40z m152-80c0 109-77 202-184 221-107 19-212-41-250-143-38-101 3-216 96-271l1-2c1-17 15-29 31-29l164 0c16 0 30 12 31 29l1 2c68 40 110 114 110 193z m-224 192c102 0 186-80 192-182l-84-42-216 0-84 42c6 102 90 182 192 182z m-190-219l63-31 9-93c-39 30-65 75-72 124z m272-165l-164 0-12 128 188 0z m36 41l9 93 63 31c-7-49-33-94-72-124z"/>
<glyph glyph-name="coronavirus" unicode="&#44;" d="M272 328c0-13-11-24-24-24-13 0-24 11-24 24 0 13 11 24 24 24 13 0 24-11 24-24z m80-64c0-13-11-24-24-24-13 0-24 11-24 24 0 13 11 24 24 24 13 0 24-11 24-24z m-80-8c0-9-7-16-16-16-9 0-16 7-16 16 0 9 7 16 16 16 9 0 16-7 16-16z m16-72c0-13-11-24-24-24-13 0-24 11-24 24 0 13 11 24 24 24 13 0 24-11 24-24z m-80 64c0-13-11-24-24-24-13 0-24 11-24 24 0 13 11 24 24 24 13 0 24-11 24-24z m240 56l0-32-33 0c-3 31-15 61-35 85l23 23 22-23 23 23-68 68-22-23 22-22-23-23c-24 20-54 32-85 35l0 33 32 0 0 32-96 0 0-32 32 0 0-33c-31-3-61-15-85-35l-23 23 23 22-23 23-68-68 23-23 22 23 23-23c-20-24-32-54-35-85l-33 0 0 32-32 0 0-96 32 0 0 32 33 0c3-31 15-61 35-85l-23-23-22 23-23-23 68-68 23 23-23 22 23 23c24-20 54-32 85-35l0-33-32 0 0-32 96 0 0 32-32 0 0 33c31 3 61 15 85 35l23-23-22-22 22-23 68 68-23 23-22-23-23 23c20 24 32 54 35 85l33 0 0-32 32 0 0 96z m-192-176c-71 0-128 57-128 128 0 71 57 128 128 128 71 0 128-57 128-128 0-71-57-128-128-128z"/>
<glyph glyph-name="calendar-heat-map" unicode="&#45;" d="M416 448l-64 0 0 32-32 0 0-32-128 0 0 32-32 0 0-32-64 0c-18 0-32-14-32-32l0-320c0-18 14-32 32-32l320 0c18 0 32 14 32 32l0 320c0 18-14 32-32 32z m-320-32l64 0 0-32 32 0 0 32 128 0 0-32 32 0 0 32 64 0 0-64-320 0z m0-96l80 0 0-96-80 0z m208-224l-96 0 0 96 96 0z m0 128l-96 0 0 96 96 0z m32-128l0 96 80 0 0-96z"/>
<glyph glyph-name="checkmark" unicode="&#46;" d="M208 173l-122 121-22-22 144-144 240 240-22 24z"/>
<glyph glyph-name="location" unicode="&#47;" d="M256 224c-44 0-80 36-80 80 0 44 36 80 80 80 44 0 80-36 80-80 0-44-36-80-80-80z m0 128c-27 0-48-21-48-48 0-27 21-48 48-48 27 0 48 21 48 48 0 26-22 48-48 48z m0-320l-135 159c-1 1-6 7-6 7-23 31-35 68-35 106 0 97 79 176 176 176 97 0 176-79 176-176 0-38-12-75-35-106l0 0c0 0-5-6-6-7z m-115 186c0 0 4-5 5-6l110-131 111 131c0 1 4 6 4 6 19 25 29 55 29 86 0 80-64 144-144 144-80 0-144-64-144-144 0-31 10-61 29-86z"/>
<glyph glyph-name="notification" unicode="&#59;" d="M459 187l-43 43 0 74c0 82-62 151-144 160l0 32-32 0 0-32c-82-9-143-78-144-160l0-74-43-43c-3-3-5-7-5-11l0-48c0-4 1-9 4-12 3-3 8-4 12-4l112 0c0-44 36-80 80-80 44 0 80 36 80 80l112 0c4 0 9 1 12 4 3 3 4 8 4 12l0 48c0 4-2 8-5 11z m-203-123c-27 0-48 21-48 48l96 0c0-27-21-48-48-48z m176 80l-352 0 0 26 43 43c3 3 5 7 5 11l0 80c0 71 57 128 128 128 71 0 128-57 128-128l0-80c0-4 2-8 5-11l43-43z"/>
<glyph glyph-name="notification-new" unicode="&#58;" d="M416 230l0 42-32 0 0-48c0-4 2-8 5-11l43-43 0-26-352 0 0 26 43 43c3 3 5 7 5 11l0 80c0 71 57 128 128 128 23 0 45-6 64-17l0 36c-15 7-31 11-48 13l0 32-32 0 0-32c-82-9-143-78-144-160l0-74-43-43c-3-3-5-7-5-11l0-48c0-4 1-9 4-12 3-3 8-4 12-4l112 0c0-44 36-80 80-80 44 0 80 36 80 80l112 0c4 0 9 1 12 4 3 3 4 8 4 12l0 48c0 4-2 8-5 11z m-160-166c-27 0-48 21-48 48l96 0c0-27-21-48-48-48z m224 320c0-35-29-64-64-64-35 0-64 29-64 64 0 35 29 64 64 64 35 0 64-29 64-64z"/>
<glyph glyph-name="badge" unicode="&#60;" d="M368 480l25-48 55-7-40-36 8-53-48 30-48-30 8 53-40 36 56 7z m-5-180l-31 8c-15-60-76-96-136-80-60 15-96 76-80 136 15 60 76 96 136 80l8 31c-64 17-132-12-163-71-31-58-19-131 31-175l0-197 96 64 96-64 0 197c21 19 36 43 43 71z m-75-208l-64 42-64-42 0 115c40-20 88-20 128 0z"/>
<glyph glyph-name="report-data" unicode="&#61;" d="M240 192l32 0 0-64-32 0z m80 32l32 0 0-96-32 0z m-160 64l32 0 0-160-32 0z m240 144l-48 0 0 16c0 18-14 32-32 32l-128 0c-18 0-32-14-32-32l0-16-48 0c-18 0-32-14-32-32l0-336c0-18 14-32 32-32l288 0c18 0 32 14 32 32l0 336c0 18-14 32-32 32z m-208 16l128 0 0-64-128 0z m208-384l-288 0 0 336 48 0 0-48 192 0 0 48 48 0z"/>
<glyph glyph-name="chat-bot" unicode="&#62;" d="M256 208c-38 0-73 19-93 50l26 18c15-23 40-36 67-36 27 0 52 13 67 36l26-18c-20-31-55-50-93-50z m64 176c-18 0-32-14-32-32 0-18 14-32 32-32 18 0 32 14 32 32 0 9-3 17-9 23-6 6-14 9-23 9z m-128 0c-18 0-32-14-32-32 0-18 14-32 32-32 18 0 32 14 32 32 0 9-3 17-9 23-6 6-14 9-23 9z m92-352l-28 16 64 112 96 0c8 0 17 3 23 9 6 6 9 15 9 23l0 224c0 8-3 17-9 23-6 6-15 9-23 9l-320 0c-8 0-17-3-23-9-6-6-9-15-9-23l0-224c0-8 3-17 9-23 6-6 15-9 23-9l144 0 0-32-144 0c-35 0-64 29-64 64l0 224c0 35 29 64 64 64l320 0c35 0 64-29 64-64l0-224c0-35-29-64-64-64l-77 0z"/>
<glyph glyph-name="chat" unicode="&#63;" d="M284 32l-28 16 64 112 96 0c18 0 32 14 32 32l0 192c0 18-14 32-32 32l-320 0c-18 0-32-14-32-32l0-192c0-18 14-32 32-32l144 0 0-32-144 0c-35 0-64 29-64 64l0 192c0 35 29 64 64 64l320 0c35 0 64-29 64-64l0-192c0-35-29-64-64-64l-77 0z m-156 320l256 0 0-32-256 0z m0-96l160 0 0-32-160 0z"/>
<glyph glyph-name="help" unicode="&#64;" d="M256 480c-124 0-224-100-224-224 0-124 100-224 224-224 124 0 224 100 224 224 0 124-100 224-224 224z m0-416c-106 0-192 86-192 192 0 106 86 192 192 192 106 0 192-86 192-192 0-106-86-192-192-192z m24 72c0-13-11-24-24-24-13 0-24 11-24 24 0 13 11 24 24 24 13 0 24-11 24-24z m-8 248l-24 0c-19 0-37-8-51-21-13-14-21-32-21-51l0-8 32 0 0 8c0 22 18 40 40 40l24 0c22 0 40-18 40-40 0-22-18-40-40-40l-32 0 0-72 32 0 0 40c40 0 72 32 72 72 0 40-32 72-72 72z"/>
<glyph glyph-name="link" unicode="&#91;" d="M468 404c-18 18-42 28-68 28-26 0-50-10-68-28l23-23c25 25 65 25 90 0 25-25 25-66 0-91l-128-128c-25-25-65-25-90 0-25 25-25 66 0 91l22 23-22 22-23-22c-18-18-28-43-28-68 0-26 10-50 28-68 18-18 43-28 68-28 26 0 50 10 68 28l128 128c38 38 38 98 0 136z m-401-289c-12 12-19 28-19 45 0 17 7 34 19 46l128 128c12 12 28 18 45 18 17 0 34-6 46-18 12-13 18-29 18-46 0-17-7-34-19-46l-34-34 23-23 34 34c38 38 38 99 0 136-38 38-99 38-136 0l-128-128c-18-18-28-42-28-68 0-25 10-50 28-68 18-18 43-27 68-27 26 0 50 10 68 28l-22 23c-12-12-29-19-46-19-17 0-33 7-45 19z"/>
<glyph glyph-name="misuse" unicode="&#93;" d="M256 480c-123 0-224-101-224-224 0-123 101-224 224-224 123 0 224 101 224 224 0 123-101 224-224 224z m86-336l-86 86-86-86-26 26 86 86-86 86 26 26 86-86 86 86 26-26-86-86 86-86z"/>
<glyph glyph-name="close-filled" unicode="&#94;" d="M256 480c-125 0-224-99-224-224 0-125 99-224 224-224 125 0 224 99 224 224 0 125-99 224-224 224z m86-336l-86 86-86-86-26 26 86 86-86 86 26 26 86-86 86 86 26-26-86-86 86-86z"/>
<glyph glyph-name="pending-filled" unicode="&#95;" d="M256 480c-124 0-224-100-224-224 0-124 100-224 224-224 124 0 224 100 224 224 0 124-100 224-224 224z m-128-256c-18 0-32 14-32 32 0 18 14 32 32 32 18 0 32-14 32-32 0-18-14-32-32-32z m128 0c-18 0-32 14-32 32 0 18 14 32 32 32 18 0 32-14 32-32 0-18-14-32-32-32z m128 0c-18 0-32 14-32 32 0 18 14 32 32 32 18 0 32-14 32-32 0-18-14-32-32-32z"/>
<glyph glyph-name="asleep" unicode="&#96;" d="M216 425c-15-63-3-129 31-184 35-55 91-93 155-107-34-34-80-54-128-54-2 0-5 0-7 0-85 3-157 67-169 151-13 85 37 167 118 194m24 39c-1 0-2 0-3 0-106-19-180-114-172-221 7-107 94-191 201-195 3 0 5 0 8 0 68 0 132 33 171 89 3 5 4 11 1 16-2 5-8 9-13 9-65 6-124 41-159 96-35 55-42 123-20 184 2 5 2 10-1 15-3 4-8 7-13 7z"/>
<glyph glyph-name="asleep-filled" unicode="&#123;" d="M240 464c-1 0-2 0-3 0-106-19-180-114-172-221 7-107 94-191 201-195 3 0 5 0 8 0 68 0 132 33 171 89 3 5 4 11 1 16-2 5-8 9-13 9-65 6-124 41-159 96-35 55-42 123-20 184 2 5 2 10-1 15-3 4-8 7-13 7z"/>
<glyph glyph-name="favorite" unicode="&#124;" d="M359 416c24 0 46-9 63-26 35-36 35-93 0-128l-166-168-166 168c-35 35-35 92 0 128 17 17 39 26 63 26 23 0 46-9 62-26l41-42 40 41c17 17 40 27 63 27m0 32c-32 0-63-13-85-36l-18-18-18 18c-22 23-53 36-85 36-32 0-63-13-86-36-47-48-47-125 0-173l189-191 189 191c47 48 47 125 0 173-23 23-54 36-86 36z"/>
<glyph glyph-name="favorite-filled" unicode="&#125;" d="M360 448c-32 0-62-13-85-35l-19-19-18 17c-46 48-123 48-169 2 0 0-2-2-2-2-48-48-48-125 0-173l189-190 189 190c48 48 48 125 0 173-23 24-53 37-85 37z"/>
<glyph glyph-name="undefined" unicode="&#126;" d="M176 288l160 0 0-64-160 0z m80-256c-9 0-17 3-24 10l-190 190c-13 13-13 35 0 48l190 190c13 13 35 13 48 0l190-190c13-13 13-35 0-48l-190-190c-7-7-15-10-24-10z m0 416c0 0-1 0-1 0l-191-191c0-1 0-1 0-2l191-191c1 0 1 0 2 0l191 191c0 1 0 1 0 2l-191 191c0 0-1 0-1 0z"/>
<glyph glyph-name="undefined-filled" unicode="&#92;" d="M471 279l-192 192c-13 12-33 12-46 0l-192-192c-12-13-12-33 0-46l192-192c13-12 33-12 46 0l192 192c12 13 12 33 0 46z m-135-55l-160 0 0 64 160 0z"/>
<glyph glyph-name="trophy" unicode="&#57344;" d="M416 400l-32 0 0 16c0 18-14 32-32 32l-192 0c-18 0-32-14-32-32l0-16-32 0c-18 0-32-14-32-32l0-48c0-35 29-64 64-64l5 0c14-50 56-87 107-95l0-65-80 0 0-32 192 0 0 32-80 0 0 65c52 7 95 44 108 95l4 0c35 0 64 29 64 64l0 48c0 18-14 32-32 32z m-288-112c-18 0-32 14-32 32l0 48 32 0z m224 0c0-26-11-51-29-69-19-18-44-28-70-27-53 3-94 48-93 101l0 123 192 0z m64 32c0-18-14-32-32-32l0 80 32 0z"/>
<glyph glyph-name="trophy-filled" unicode="&#57345;" d="M416 400l-32 0 0 16c0 18-14 32-32 32l-192 0c-18 0-32-14-32-32l0-16-32 0c-18 0-32-14-32-32l0-48c0-35 29-64 64-64l5 0c14-50 56-87 107-95l0-65-80 0 0-32 192 0 0 32-80 0 0 65c52 7 95 44 108 95l4 0c35 0 64 29 64 64l0 48c0 18-14 32-32 32z m-288-112c-18 0-32 14-32 32l0 48 32 0z m288 32c0-18-14-32-32-32l0 80 32 0z"/>
<glyph glyph-name="light" unicode="&#57346;" d="M240 480l32 0 0-79-32 0z m107-110l56 56 23-23-56-56z m54-98l79 0 0-32-79 0z m-54-130l23 23 56-56-23-23z m-107-31l32 0 0-79-32 0z m-154-2l56 56 23-23-56-56z m-54 163l79 0 0-32-79 0z m54 131l23 23 56-56-23-23z m170-83c35 0 64-29 64-64 0-35-29-64-64-64-35 0-64 29-64 64 0 35 29 64 64 64m0 32c-53 0-96-43-96-96 0-53 43-96 96-96 53 0 96 43 96 96 0 53-43 96-96 96z"/>
<glyph glyph-name="light-filled" unicode="&#57347;" d="M240 480l32 0 0-79-32 0z m107-110l56 56 23-23-56-56z m54-98l79 0 0-32-79 0z m-54-130l23 23 56-56-23-23z m-107-31l32 0 0-79-32 0z m-154-2l56 56 23-23-56-56z m-54 163l79 0 0-32-79 0z m54 131l23 23 56-56-23-23z m170-51c-53 0-96-43-96-96 0-53 43-96 96-96 53 0 96 43 96 96 0 53-43 96-96 96z"/>
<glyph glyph-name="home" unicode="&#57348;" d="M266 477c-6 4-14 4-20 0l-230-180 20-25 28 22 0-198c0-18 14-32 32-32l320 0c18 0 32 14 32 32l0 198 28-22 20 25z m22-381l-64 0 0 128 64 0z m32 0l0 128c0 18-14 32-32 32l-64 0c-18 0-32-14-32-32l0-128-96 0 0 223 160 125 160-125 0-223z"/>
<glyph glyph-name="grid" unicode="&#57349;" d="M192 448l-96 0c-18 0-32-14-32-32l0-96c0-18 14-32 32-32l96 0c18 0 32 14 32 32l0 96c0 18-14 32-32 32z m0-128l-96 0 0 96 96 0z m224 128l-96 0c-18 0-32-14-32-32l0-96c0-18 14-32 32-32l96 0c18 0 32 14 32 32l0 96c0 18-14 32-32 32z m0-128l-96 0 0 96 96 0z m-224-96l-96 0c-18 0-32-14-32-32l0-96c0-18 14-32 32-32l96 0c18 0 32 14 32 32l0 96c0 18-14 32-32 32z m0-128l-96 0 0 96 96 0z m224 128l-96 0c-18 0-32-14-32-32l0-96c0-18 14-32 32-32l96 0c18 0 32 14 32 32l0 96c0 18-14 32-32 32z m0-128l-96 0 0 96 96 0z"/>
<glyph glyph-name="printer" unicode="&#57350;" d="M448 368l-48 0 0 96-288 0 0-96-48 0c-18 0-32-14-32-32l0-160c0-18 14-32 32-32l48 0 0-96 288 0 0 96 48 0c18 0 32 14 32 32l0 160c0 18-14 32-32 32z m-304 64l224 0 0-64-224 0z m224-352l-224 0 0 160 224 0z m80 96l-48 0 0 96-288 0 0-96-48 0 0 160 384 0z"/>
<glyph glyph-name="play" unicode="&#57351;" d="M112 64c-9 0-16 7-16 16l0 352c0 6 3 11 8 14 5 3 11 3 16 0l304-176c5-3 8-8 8-14 0-6-3-11-8-14l-304-176c-2-1-5-2-8-2z m16 340l0-296 256 148z"/>
<glyph glyph-name="pause" unicode="&#57352;" d="M192 384l0-256-64 0 0 256 64 0m0 32l-64 0c-18 0-32-14-32-32l0-256c0-18 14-32 32-32l64 0c18 0 32 14 32 32l0 256c0 18-14 32-32 32z m192-32l0-256-64 0 0 256 64 0m0 32l-64 0c-18 0-32-14-32-32l0-256c0-18 14-32 32-32l64 0c18 0 32 14 32 32l0 256c0 18-14 32-32 32z"/>
<glyph glyph-name="stop" unicode="&#57353;" d="M384 384l0-256-256 0 0 256 256 0m0 32l-256 0c-18 0-32-14-32-32l0-256c0-18 14-32 32-32l256 0c18 0 32 14 32 32l0 256c0 18-14 32-32 32z"/>
<glyph glyph-name="copy" unicode="&#57354;" d="M448 352l0-288-288 0 0 288 288 0m0 32l-288 0c-18 0-32-14-32-32l0-288c0-18 14-32 32-32l288 0c18 0 32 14 32 32l0 288c0 18-14 32-32 32z m-384-160l-32 0 0 224c0 18 14 32 32 32l224 0 0-32-224 0z"/>
<glyph glyph-name="hospital" unicode="&#57355;" d="M336 352l-64 0 0 64-32 0 0-64-64 0 0-32 64 0 0-64 32 0 0 64 64 0z m112 0l-32 0 0 96c0 18-14 32-32 32l-256 0c-18 0-32-14-32-32l0-96-32 0c-18 0-32-14-32-32l0-288 448 0 0 288c0 18-14 32-32 32z m-224-288l0 96 64 0 0-96z m96 0l0 112c0 9-7 16-16 16l-96 0c-9 0-16-7-16-16l0-112-128 0 0 256 64 0 0 128 256 0 0-128 64 0 0-256z"/>
<glyph glyph-name="hospital-bed" unicode="&#57356;" d="M400 256l-128 0c-18 0-32-14-32-32l0-96-176 0 0 160-32 0 0-256 32 0 0 64 384 0 0-64 32 0 0 144c0 44-36 80-80 80z m48-128l-176 0 0 96 128 0c26 0 48-22 48-48z m-296 112c13 0 24-11 24-24 0-13-11-24-24-24-13 0-24 11-24 24 0 13 11 24 24 24m0 32c-31 0-56-25-56-56 0-31 25-56 56-56 31 0 56 25 56 56 0 31-25 56-56 56z m184 144l-64 0 0 64-32 0 0-64-64 0 0-32 64 0 0-64 32 0 0 64 64 0z"/>
<glyph glyph-name="health-cross" unicode="&#57357;" d="M304 64l-96 0c-18 0-32 14-32 32l0 80-80 0c-18 0-32 14-32 32l0 96c0 18 14 32 32 32l80 0 0 80c0 18 14 32 32 32l96 0c18 0 32-14 32-32l0-80 80 0c18 0 32-14 32-32l0-96c0-18-14-32-32-32l-80 0 0-80c0-18-14-32-32-32z m-208 240l0-96 112 0 0-112 96 0 0 112 112 0 0 96-112 0 0 112-96 0 0-112z"/>
<glyph glyph-name="archive" unicode="&#57358;" d="M224 208l64 0 0-32-64 0z m-128 272l0-416c0-18 14-32 32-32l256 0c18 0 32 14 32 32l0 416z m288-416l-256 0 0 192 256 0z m0 224l-256 0 0 64 256 0z m-256 96l0 64 256 0 0-64z"/>
<glyph glyph-name="box" unicode="&#57359;" d="M320 176l-128 0c-18 0-32 14-32 32l0 32c0 18 14 32 32 32l128 0c18 0 32-14 32-32l0-32c0-18-14-32-32-32z m-128 64l0-32 128 0 0 32z m256 208l-384 0c-18 0-32-14-32-32l0-64c0-18 14-32 32-32l0-256c0-18 14-32 32-32l320 0c18 0 32 14 32 32l0 256c18 0 32 14 32 32l0 64c0 18-14 32-32 32z m-32-384l-320 0 0 256 320 0z m32 288l-384 0 0 64 384 0z"/>
<glyph glyph-name="car-front" unicode="&#57360;" d="M208 208l96 0 0-32-96 0z m199 80l-20 73c-4 14-17 23-31 23l-200 0c-14 0-27-10-31-23l-20-73-41 0 0-32 33 0-1-112c0-18 14-32 32-32l0-48 32 0 0 48 192 0 0-48 32 0 0 48c18 0 32 14 32 32l0 112 32 0 0 32z m-251 64l200 0 23-80-246 0z m228-176l0-32-256 0 0 32 32 0 0 32-32 0 0 32 256 0 0-32-32 0 0-32z"/>
<glyph glyph-name="car" unicode="&#57361;" d="M469 257l-123 44-52 65c-9 12-23 18-37 18l-128 0c-16 0-31-8-40-21l-43-64c-9-13-14-29-14-45l0-126c0-9 7-16 16-16l34 0c8-28 33-47 62-47 29 0 54 19 62 47l100 0c8-28 33-47 62-47 29 0 54 19 62 47l34 0c9 0 16 7 16 16l0 114c0 7-4 13-11 15z m-325-161c-18 0-32 14-32 32 0 18 14 32 32 32 18 0 32-14 32-32 0-18-14-32-32-32z m224 0c-18 0-32 14-32 32 0 18 14 32 32 32 18 0 32-14 32-32 0-18-14-32-32-32z m80 48l-18 0c-8 28-33 47-62 47-29 0-54-19-62-47l-100 0c-8 28-33 47-62 47-29 0-54-19-62-47l-18 0 0 110c0 10 3 19 8 27l44 64c3 5 8 7 13 7l128 0c5 0 9-2 12-6l55-68c2-2 4-4 7-5l117-42z"/>
<glyph glyph-name="app-switcher" unicode="&#57362;" d="M224 448l64 0 0-64-64 0z m-160 0l64 0 0-64-64 0z m320 0l64 0 0-64-64 0z m-160-160l64 0 0-64-64 0z m-160 0l64 0 0-64-64 0z m320 0l64 0 0-64-64 0z m-160-160l64 0 0-64-64 0z m-160 0l64 0 0-64-64 0z m320 0l64 0 0-64-64 0z"/>
<glyph glyph-name="draggable" unicode="&#57363;" d="M160 416l64 0 0-64-64 0z m128 0l64 0 0-64-64 0z m-128-128l64 0 0-64-64 0z m128 0l64 0 0-64-64 0z m-128-128l64 0 0-64-64 0z m128 0l64 0 0-64-64 0z"/>
<glyph glyph-name="map" unicode="&#57364;" d="M256 128l-97 138c-33 38-40 92-20 138 21 46 67 75 117 76 71-1 128-59 128-130 0-30-10-59-29-82z m0 320c-54-1-97-45-96-98 0-24 9-46 24-64l72-102 74 104c14 18 22 39 22 62 1 53-42 97-96 98z m32-80c0-18-14-32-32-32-18 0-32 14-32 32 0 18 14 32 32 32 18 0 32-14 32-32z m160-48l-32 0 0-32 32 0 0-224-384 0 0 224 32 0 0 32-32 0c-18 0-32-14-32-32l0-224c0-18 14-32 32-32l384 0c18 0 32 14 32 32l0 224c0 18-14 32-32 32z"/>
<glyph glyph-name="presentation-file" unicode="&#57365;" d="M240 352l32 0 0-128-32 0z m80-64l32 0 0-64-32 0z m-160 32l32 0 0-96-32 0z m240 128l-128 0 0 32-32 0 0-32-128 0c-18 0-32-14-32-32l0-224c0-18 14-32 32-32l128 0 0-96-64 0 0-32 160 0 0 32-64 0 0 96 128 0c18 0 32 14 32 32l0 224c0 18-14 32-32 32z m0-256l-288 0 0 224 288 0z"/>
<glyph glyph-name="query" unicode="&#57366;" d="M200 264c0-13-11-24-24-24-13 0-24 11-24 24 0 13 11 24 24 24 13 0 24-11 24-24z m-8 56l-32 0 0 64 32 0c18 0 32 14 32 32 0 18-14 32-32 32l-32 0c-18 0-32-14-32-32l0-8-32 0 0 8c0 35 29 64 64 64l32 0c35 0 64-29 64-64 0-35-29-64-64-64z m167-145c33 39 47 90 39 140-8 50-37 94-79 121l-16-28c57-37 80-111 54-174-26-64-93-101-161-87-67 13-116 72-116 141l-32 0c0-68 39-130 101-159 62-29 135-20 188 24l120-121 23 23z"/>
<glyph glyph-name="close-outline" unicode="&#57367;" d="M256 480c-125 0-224-99-224-224 0-125 99-224 224-224 125 0 224 99 224 224 0 125-99 224-224 224z m0-416c-106 0-192 86-192 192 0 106 86 192 192 192 106 0 192-86 192-192 0-106-86-192-192-192z m86 80l-86 86-86-86-26 26 86 86-86 86 26 26 86-86 86 86 26-26-86-86 86-86z"/>
<glyph glyph-name="pending" unicode="&#57368;" d="M176 256c0-18-14-32-32-32-18 0-32 14-32 32 0 18 14 32 32 32 18 0 32-14 32-32z m224 0c0-18-14-32-32-32-18 0-32 14-32 32 0 18 14 32 32 32 18 0 32-14 32-32z m-112 0c0-18-14-32-32-32-18 0-32 14-32 32 0 18 14 32 32 32 18 0 32-14 32-32z m-32-224c-124 0-224 100-224 224 0 124 100 224 224 224 124 0 224-100 224-224 0-124-100-224-224-224z m0 416c-106 0-192-86-192-192 0-106 86-192 192-192 106 0 192 86 192 192 0 106-86 192-192 192z"/>
<glyph glyph-name="time" unicode="&#57369;" d="M256 32c-124 0-224 100-224 224 0 124 100 224 224 224 124 0 224-100 224-224 0-124-100-224-224-224z m0 416c-106 0-192-86-192-192 0-106 86-192 192-192 106 0 192 86 192 192 0 106-86 192-192 192z m73-288l-89 89 0 151 32 0 0-137 80-80z"/>
<glyph glyph-name="ccs" unicode="&#57370;" d="M181 144l-96 0c-18 0-32 14-32 32l0 160c0 18 14 32 32 32l96 0 0-32-96 0 0-160 96 0z m139 0l-96 0c-18 0-32 14-32 32l0 160c0 18 14 32 32 32l96 0 0-32-96 0 0-160 96 0z m112 0l-96 0 0 32 96 0 0 64-64 0c-18 0-32 14-32 32l0 64c0 18 14 32 32 32l96 0 0-32-96 0 0-64 64 0c18 0 32-14 32-32l0-64c0-18-14-32-32-32z"/>
<glyph glyph-name="ipc" unicode="&#57371;" d="M234 144l-32 0 0 224 96 0c17 0 32-14 32-32l0-80c0-18-15-32-32-32l-64 0z m0 112l64 0 0 80-64 0z m-186 80l48 0 0-160-48 0 0-32 128 0 0 32-48 0 0 160 48 0 0 32-128 0z m426-192l-96 0c-18 0-32 14-32 32l0 160c0 18 14 32 32 32l96 0 0-32-96 0 0-160 96 0z"/>
<glyph glyph-name="pec" unicode="&#57372;" d="M69 144l-32 0 0 224 96 0c17 0 32-14 32-32l0-80c0-18-15-32-32-32l-64 0z m0 112l64 0 0 80-64 0z m405-112l-96 0c-18 0-32 14-32 32l0 160c0 18 14 32 32 32l96 0 0-32-96 0 0-160 96 0z m-154 192l0 32-128 0 0-224 128 0 0 32-96 0 0 64 80 0 0 32-80 0 0 64z"/>
<glyph glyph-name="psi" unicode="&#57373;" d="M294 144l-96 0 0 32 96 0 0 64-64 0c-17 0-32 14-32 32l0 64c0 18 15 32 32 32l96 0 0-32-96 0 0-64 64 0c18 0 32-14 32-32l0-64c0-18-14-32-32-32z m-208 0l-32 0 0 224 96 0c18 0 32-14 32-32l0-80c0-18-14-32-32-32l-64 0z m0 112l64 0 0 80-64 0z m255 80l48 0 0-160-48 0 0-32 128 0 0 32-48 0 0 160 48 0 0 32-128 0z"/>
<glyph glyph-name="qip" unicode="&#57374;" d="M144 368l-64 0c-18 0-32-14-32-32l0-160c0-18 14-32 32-32l16 0 0-32c0-18 14-32 32-32l32 0 0 32-32 0 0 32 16 0c18 0 32 14 32 32l0 160c0 18-14 32-32 32z m-64-192l0 160 64 0 0-160z m112 160l48 0 0-160-48 0 0-32 128 0 0 32-48 0 0 160 48 0 0 32-128 0z m182-192l-32 0 0 224 96 0c18 0 32-14 32-32l0-80c0-18-14-32-32-32l-64 0z m0 112l64 0 0 80-64 0z"/>
</font>
</defs>
</svg>
